Login

  

E-Demon (2018) 1080p WEB-DL





Thread creado por GrosoyGroso el 14/09/2018 11:08:23 am. Lecturas: 26. Mensajes: 6. Favoritos: 0





14/09/2018 11:08:23 am 
       4                           
GrosoyGroso


Miembro desde: 11/02/2012

Threads abiertos: 62
Mensajes: 519  
Subtítulos subidos: 188
Threads Favoritos: 0










E-Demon.2018.WEBRip.x264-ION10
E-Demon.2018.AMZN.WEBRip.AAC2.0.x264-NTG
E-Demon.2018.1080p.AMZN.WEBRip.DDP2.0.x264-NTG
E-Demon.2018.720p.AMZN.WEBRip.DDP2.0.x264-NTG

Video
ID : 1
Format : AVC
Format/Info : Advanced Video Codec
Format profile : [email protected]
Format settings : CABAC / 4 Ref Frames
Format settings, CABAC : Yes
Format settings, ReFrames : 4 frames
Codec ID : V_MPEG4/ISO/AVC
Duration : 1 h 25 min
Bit rate : 9 489 kb/s
Width : 1 920 pixels
Height : 1 080 pixels
Display aspect ratio : 16:9
Frame rate mode : Constant
Frame rate : 23.976 (24000/1001) FPS
Color space : YUV
Chroma subsampling : 4:2:0
Bit depth : 8 bits
Scan type : Progressive
Bits/(PixelFrame) : 0.191
Stream size : 5.68 GiB (98%)
Default : Yes
Forced : No
Color range : Limited
Color primaries : BT.709
Transfer characteristics : BT.709
Matrix coefficients : BT.709

Audio
ID : 2
Format : E-AC-3
Format/Info : Enhanced Audio Coding 3
Codec ID : A_EAC3
Duration : 1 h 25 min
Bit rate mode : Constant
Bit rate : 224 kb/s
Channel(s) : 2 channels
Channel positions : Front: L R
Sampling rate : 48.0 kHz
Frame rate : 187.500 FPS (256 SPF)
Compression mode : Lossy
Stream size : 137 MiB (2%)
Language : English
Service kind : Complete Main
Default : Yes
Forced : No





The Den (2013)
Unfriended (2014)

44 4



14/09/2018 11:15:17 am 
       1                           
ramma07


Miembro desde: 11/12/2007

Threads abiertos: 0
Mensajes: 16437  
Subtítulos subidos: 0
Threads Favoritos: 0






14/09/2018 12:23:03 pm 
       1                           
Hummm, pinta que es una garcha total


14/09/2018 03:57:57 pm 
       3                           
Otra bosta para cruzar de vereda...


15/09/2018 01:36:35 am 
       0                           

16/09/2018 10:25:37 pm 
       0                           
Shaitanfog


Miembro desde: 03/11/2010

Threads abiertos: 6
Mensajes: 142  
Subtítulos subidos: 0
Threads Favoritos: 0





Sospecho que se está gestando otro sub-sub-género como el del found-footage, ahora todos quieren hacer su peliculita basada solamente en las pantallas de computadoras.




rate

1